<?xml version="1.0" standalone="no"?>
<!DOCTYPE svg PUBLIC "-//W3C//DTD SVG 1.1//EN" "http://www.w3.org/Graphics/SVG/1.1/DTD/svg11.dtd" >
<svg xmlns="http://www.w3.org/2000/svg">
<metadata>
This is a custom SVG webfont generated by Font Squirrel.
Copyright   : Copyright c 1988 1990 Adobe Systems Incorporated  All Rights ReservedHelvetica is a registered trademark of Linotype AG andor its subsidiaries
</metadata>
<defs>
<font id="HelveticaNeueBold" horiz-adv-x="1138" >
<font-face units-per-em="2048" ascent="1638" descent="-410" />
<missing-glyph horiz-adv-x="569" />
<glyph unicode=" "  horiz-adv-x="569" />
<glyph unicode="&#x09;" horiz-adv-x="569" />
<glyph unicode="&#xa0;" horiz-adv-x="569" />
<glyph unicode="!" horiz-adv-x="569" d="M125 0v315h321v-315h-321zM133 1069v393h303v-393l-80 -631h-145z" />
<glyph unicode="&#x22;" horiz-adv-x="948" d="M174 805v657h219v-657h-219zM555 805v657h219v-657h-219z" />
<glyph unicode="#" d="M68 406v184h194l37 254h-170v184h195l57 406h199l-58 -406h199l55 406h199l-55 -406h151v-184h-178l-35 -254h152v-184h-179l-55 -406h-198l55 406h-197l-57 -406h-199l58 406h-170zM461 590h198l35 254h-196z" />
<glyph unicode="$" d="M-2 475h291q-2 -109 59.5 -180.5t159.5 -89.5v428q-6 2 -66 18q-193 51 -282 123q-127 100 -127 285q0 199 145 319q131 106 330 119v158h121v-158q197 -23 315 -123q133 -113 146 -313h-291q-2 82 -51.5 139t-118.5 57v-362q33 -8 104 -27q262 -72 354 -227 q53 -92 54 -248q0 -129 -103 -248q-141 -162 -409 -180v-174h-121v174q-465 35 -510 510zM324 1087q0 -68 42 -104.5t142 -58.5v333q-74 0 -129 -45t-55 -125zM629 205q88 8 147 55q74 55 74 146q0 80 -47 118.5t-174 73.5v-393z" />
<glyph unicode="%" horiz-adv-x="2048" d="M154 1057q0 178 84 286q92 119 264 119q336 0 336 -413q0 -176 -84 -277q-90 -109 -262 -108q-338 0 -338 393zM362 1053q0 -102 17 -152q29 -84 115 -84q135 0 135 234q0 258 -127 258q-140 0 -140 -256zM520 -45l848 1524h174l-844 -1524h-178zM1210 375q0 176 84 280 q92 115 265 115q336 0 335 -403q0 -176 -84 -281q-90 -115 -262 -115q-338 1 -338 404zM1419 373q0 -248 131 -248q135 0 136 246q0 246 -127 245q-140 1 -140 -243z" />
<glyph unicode="&#x26;" horiz-adv-x="1402" d="M66 410q0 272 327 424q-139 172 -139 311q0 147 117 244q113 90 264 90q174 0 285 -88q117 -94 116 -263q0 -227 -260 -364l189 -232q39 74 53 175h252q-23 -213 -142 -361l297 -346h-356l-119 145q-178 -174 -411 -174q-205 0 -336 115q-137 121 -137 324zM342 403 q0 -80 62.5 -136t146.5 -56q131 0 246 129l-250 305q-205 -90 -205 -242zM518 1155q0 -59 37 -119q12 -20 78 -100q76 49 106 84q43 53 43 125q0 57 -40 98t-93 41t-92 -37t-39 -92z" />
<glyph unicode="'" horiz-adv-x="569" d="M176 805v657h219v-657h-219z" />
<glyph unicode="(" horiz-adv-x="606" d="M106 549q0 242 68 491q74 270 203 457h244q-223 -426 -224 -928q0 -512 221 -942h-241q-271 449 -271 922z" />
<glyph unicode=")" horiz-adv-x="606" d="M-14 -373q223 422 223 926q0 510 -221 944h241q270 -453 271 -924q0 -242 -68 -491q-74 -268 -203 -455h-243z" />
<glyph unicode="*" horiz-adv-x="833" d="M45 1139l55 157l232 -90v256h164v-256l237 90l55 -157l-241 -80l151 -201l-135 -100l-151 211l-144 -211l-137 100l152 201z" />
<glyph unicode="+" horiz-adv-x="1228" d="M98 408v219h408v407h219v-407h408v-219h-408v-408h-219v408h-408z" />
<glyph unicode="," horiz-adv-x="569" d="M125 0v315h321v-315q0 -137 -91 -228t-228 -112v147q63 10 106 67.5t39 125.5h-147z" />
<glyph unicode="-" horiz-adv-x="833" d="M109 434v250h616v-250h-616z" />
<glyph unicode="." horiz-adv-x="569" d="M123 0v315h321v-315h-321z" />
<glyph unicode="/" horiz-adv-x="759" d="M-23 -35l572 1532h233l-571 -1532h-234z" />
<glyph unicode="0" d="M43 723q0 391 156 580q133 160 368 159q238 0 373 -159q156 -186 156 -580q0 -752 -529 -752q-524 0 -524 752zM334 723q0 -209 28 -317q53 -195 205 -195q154 0 209 195q29 109 29 317q0 500 -238 500q-233 0 -233 -500z" />
<glyph unicode="1" d="M152 930v219q379 -8 419 285h232v-1434h-291v930h-360z" />
<glyph unicode="2" d="M43 0q2 223 133 383q84 98 320 258q168 115 198 141q102 94 103 209q0 100 -60.5 160.5t-154.5 60.5q-119 0 -179 -108q-49 -88 -49 -221h-278q-8 254 130 416.5t390 162.5q205 0 344 -119q147 -127 147 -329q0 -190 -126 -326q-63 -68 -279 -207q-188 -125 -264 -231 h678v-250h-1053z" />
<glyph unicode="3" d="M37 494h276q4 -125 66 -199q66 -84 186 -84q100 0 167 62.5t67 162.5q0 143 -113 189q-63 25 -219 24v205q119 -10 199 25q106 43 106 153q0 88 -59.5 139.5t-143.5 51.5q-106 0 -164.5 -71t-56.5 -185h-276q8 221 142 358t353 137q186 0 328 -102q154 -115 154 -295 q0 -106 -52 -182q-53 -84 -149 -111v-4q117 -27 185.5 -116t68.5 -210q0 -217 -162 -348q-150 -123 -371 -123q-246 0 -391 139.5t-141 383.5z" />
<glyph unicode="4" d="M33 332v266l622 836h260v-863h191v-239h-191v-332h-276v332h-606zM262 571h377v498h-6z" />
<glyph unicode="5" d="M37 426h291q10 -96 75.5 -155.5t159.5 -59.5q111 0 179.5 82t68.5 194q0 115 -66.5 192t-181.5 77q-135 0 -219 -115h-262l141 793h801v-240h-592l-57 -326l4 -4q109 111 280 111q205 0 328 -144q115 -135 115 -344q0 -219 -157 -368.5t-376 -147.5q-223 2 -368 115 q-162 125 -164 340z" />
<glyph unicode="6" d="M43 713q0 301 129 506q152 244 434 243q188 0 314.5 -105.5t150.5 -291.5h-276q-14 76 -66.5 127t-126.5 51q-139 0 -213 -158q-53 -115 -61 -278l4 -4q113 160 323 160q199 0 330 -148q111 -125 111 -319q0 -223 -140.5 -374t-361.5 -151q-299 0 -438 236 q-113 189 -113 506zM354 477q0 -106 62 -182q66 -84 170 -84q98 0 162 82q57 76 57 180q0 111 -53 186q-59 84 -166 84q-111 0 -171.5 -76.5t-60.5 -189.5z" />
<glyph unicode="7" d="M80 1163v271h979v-250q-213 -186 -346 -547q-119 -326 -123 -637h-311q49 645 481 1163h-680z" />
<glyph unicode="8" d="M29 420q0 135 71.5 228t198.5 124v4q-211 59 -211 295q0 182 154 293q139 98 329 98q240 0 373 -139q106 -113 107 -246q0 -229 -209 -305q127 -29 197.5 -122t70.5 -228q0 -213 -168 -338q-152 -113 -369 -113q-225 0 -376 109q-168 121 -168 340zM319 434 q0 -109 74 -176.5t180 -67.5t176 68t70 174q0 100 -70.5 165t-175.5 65q-111 0 -180 -58q-74 -64 -74 -170zM352 1044q0 -90 63.5 -139t155.5 -49t153.5 50t61.5 138q0 76 -38 127q-57 72 -177 72q-92 0 -155.5 -53.5t-63.5 -145.5z" />
<glyph unicode="9" d="M43 938q0 223 140.5 373.5t361.5 150.5q299 0 438 -235q113 -188 113 -506q0 -301 -129 -506q-152 -244 -435 -244q-188 0 -314 105.5t-150 292.5h276q14 -76 66.5 -127.5t126.5 -51.5q139 0 213 158q53 115 61 279l-4 4q-113 -160 -324 -160q-199 0 -329 147 q-111 125 -111 320zM334 961q0 -111 53 -187q61 -84 166 -84q111 0 174 80q57 74 57 186q0 106 -61 183q-66 84 -170 84q-98 0 -158.5 -79t-60.5 -183z" />
<glyph unicode=":" horiz-adv-x="569" d="M125 0v315h321v-315h-321zM125 725v315h321v-315h-321z" />
<glyph unicode=";" horiz-adv-x="569" d="M125 0v315h321v-315q0 -137 -91 -228t-228 -112v147q63 10 106 67.5t39 125.5h-147zM125 725v315h321v-315h-321z" />
<glyph unicode="&#x3c;" horiz-adv-x="1228" d="M94 397v242l1041 414v-236l-752 -299l752 -299v-235z" />
<glyph unicode="=" horiz-adv-x="1228" d="M98 188v220h1035v-220h-1035zM98 627v219h1035v-219h-1035z" />
<glyph unicode="&#x3e;" horiz-adv-x="1228" d="M94 -16v235l752 299l-752 299v236l1041 -414v-242z" />
<glyph unicode="?" d="M66 991q4 223 140 364.5t357 141.5q262 0 400 -139q111 -109 110 -256q0 -135 -53 -223q-37 -61 -119 -123q-111 -82 -127 -99q-61 -63 -74 -141v-78h-276v92q0 119 59 203q35 53 118 117.5t106 93.5q45 55 45 129q0 184 -174 184q-104 0 -156.5 -74.5t-54.5 -191.5h-301 zM395 0v315h322v-315h-322z" />
<glyph unicode="@" horiz-adv-x="1638" d="M74 731q0 322 228 544t550 222q291 0 496 -170q217 -180 217 -455q0 -279 -191 -454q-152 -139 -291 -139q-63 0 -104 32.5t-45 83.5h-4q-72 -119 -221 -119q-131 0 -226.5 103.5t-95.5 247.5q0 205 123 358q129 164 324 164q176 0 239 -143l33 110h168l-129 -528 q-14 -61 -15 -88q0 -47 33 -47q92 0 167 109.5t75 266.5q0 238 -160 375q-154 129 -395 129q-260 0 -420 -171t-160 -435q0 -266 169 -432t435 -166q272 0 441 168h172q-104 -158 -268 -245t-357 -87q-330 0 -559 220t-229 546zM596 653q0 -82 44 -132t116 -50 q104 0 182 102q70 94 70 207q0 74 -46.5 124t-111.5 50q-104 0 -182 -100q-72 -92 -72 -201z" />
<glyph unicode="A" horiz-adv-x="1402" d="M-14 0l555 1462h329l547 -1462h-334l-110 326h-547l-115 -326h-325zM510 565h379l-184 537h-5z" />
<glyph unicode="B" horiz-adv-x="1441" d="M141 0v1462h688q467 0 467 -362q0 -209 -198 -305q268 -78 268 -371q0 -209 -160 -324q-139 -100 -356 -100h-709zM463 250h344q238 0 237 192q0 209 -231 209h-350v-401zM463 870h325q197 0 197 174q0 168 -221 168h-301v-342z" />
<glyph unicode="C" horiz-adv-x="1517" d="M78 725q0 336 190 549q197 223 529 223q250 0 422 -137q180 -143 208 -389h-311q-14 109 -106 182.5t-213 73.5q-203 0 -308 -156q-90 -133 -90 -346q0 -205 90 -336q106 -154 308 -153q143 0 231 92q82 86 100 235h312q-25 -272 -200 -435t-443 -163q-330 0 -529 221 q-190 211 -190 539z" />
<glyph unicode="D" horiz-adv-x="1517" d="M141 0v1462h631q297 0 473 -180q190 -190 191 -543q0 -332 -164 -528q-176 -211 -500 -211h-631zM463 270h287q156 0 251 99q113 115 113 340q0 236 -90 352q-102 131 -332 131h-229v-922z" />
<glyph unicode="E" horiz-adv-x="1327" d="M141 0v1462h1094v-270h-772v-313h708v-250h-708v-359h788v-270h-1110z" />
<glyph unicode="F" horiz-adv-x="1214" d="M141 0v1462h1028v-270h-706v-338h612v-250h-612v-604h-322z" />
<glyph unicode="G" horiz-adv-x="1554" d="M78 725q0 336 190 549q197 223 529 223q236 0 407 -133q184 -143 209 -383h-307q-27 119 -110 182.5t-199 63.5q-203 0 -308 -156q-90 -133 -90 -346q0 -205 90 -336q106 -154 308 -153q319 0 348 315h-324v240h615v-791h-205l-33 166q-156 -201 -401 -201 q-330 0 -529 221q-190 211 -190 539z" />
<glyph unicode="H" horiz-adv-x="1517" d="M141 0v1462h322v-561h592v561h321v-1462h-321v631h-592v-631h-322z" />
<glyph unicode="I" horiz-adv-x="604" d="M141 0v1462h322v-1462h-322z" />
<glyph unicode="J" d="M29 418v127h290v-66q0 -244 187 -243q113 0 149 81q20 47 21 158v987h321v-1001q0 -496 -487 -496q-201 0 -332 107q-149 121 -149 346z" />
<glyph unicode="K" horiz-adv-x="1478" d="M141 0v1462h322v-606l571 606h402l-572 -577l627 -885h-404l-440 657l-184 -186v-471h-322z" />
<glyph unicode="L" horiz-adv-x="1214" d="M141 0v1462h322v-1192h713v-270h-1035z" />
<glyph unicode="M" horiz-adv-x="1857" d="M141 0v1462h453l342 -1005h4l324 1005h452v-1462h-301v1036h-4l-358 -1036h-248l-359 1026h-4v-1026h-301z" />
<glyph unicode="N" horiz-adv-x="1517" d="M141 0v1462h320l610 -981h4v981h301v-1462h-321l-609 979h-4v-979h-301z" />
<glyph unicode="O" horiz-adv-x="1593" d="M78 725q0 336 190 549q197 223 529 223t528 -223q190 -213 191 -549q0 -328 -191 -539q-199 -221 -528 -221q-330 0 -529 221q-190 211 -190 539zM399 725q0 -205 90 -336q106 -154 308 -153q201 0 307 153q90 131 90 336q0 213 -90 346q-104 156 -307 156t-308 -156 q-90 -133 -90 -346z" />
<glyph unicode="P" horiz-adv-x="1366" d="M141 0v1462h660q256 0 389 -145q117 -125 117 -324t-117 -323q-133 -145 -389 -146h-338v-524h-322zM463 774h250q131 0 196 39q86 53 86 180t-86 181q-66 39 -196 38h-250v-438z" />
<glyph unicode="Q" horiz-adv-x="1593" d="M78 725q0 336 190 549q197 223 529 223t528 -223q190 -213 191 -549q0 -324 -191 -539l182 -166l-149 -157l-207 188q-150 -86 -354 -86q-330 0 -529 221q-190 211 -190 539zM399 725q0 -205 90 -336q106 -154 308 -153q106 0 129 20l-138 125l150 160l166 -152 q90 125 90 336q0 213 -90 346q-104 156 -307 156t-308 -156q-90 -133 -90 -346z" />
<glyph unicode="R" horiz-adv-x="1478" d="M141 0v1462h789q193 0 313 -119q115 -115 115 -284q0 -272 -232 -367v-4q193 -49 213 -342l13 -176q12 -119 49 -170h-322q-23 55 -35 166l-16 184q-16 119 -70.5 170t-173.5 51h-321v-571h-322zM463 801h352q221 0 221 209q0 203 -221 202h-352v-411z" />
<glyph unicode="S" horiz-adv-x="1329" d="M49 485h311q0 -137 99 -209q84 -61 225 -61q111 0 184 35q100 47 101 147q0 125 -226 189q-389 111 -419 127q-225 109 -226 342q0 211 174 334q156 109 373 108q252 0 408 -108q178 -125 178 -363h-311q-12 221 -289 221q-88 0 -150 -37q-72 -45 -71 -129q0 -80 79 -116 q61 -29 357 -105q172 -43 256 -98q178 -115 178 -328q0 -209 -156 -336q-164 -133 -452 -133q-264 0 -434 125q-191 141 -189 395z" />
<glyph unicode="T" horiz-adv-x="1251" d="M27 1192v270h1198v-270h-439v-1192h-321v1192h-438z" />
<glyph unicode="U" horiz-adv-x="1517" d="M135 553v909h322v-909q0 -145 53 -219q72 -98 248 -98q168 0 237 77q66 72 66 240v909h321v-909q0 -291 -162.5 -439.5t-461.5 -148.5q-623 0 -623 588z" />
<glyph unicode="V" horiz-adv-x="1290" d="M-16 1462h331l326 -1028h4l330 1028h332l-486 -1462h-362z" />
<glyph unicode="W" horiz-adv-x="1933" d="M6 1462h322l231 -995h4l254 995h301l250 -1007h4l240 1007h315l-393 -1462h-320l-247 995h-4l-244 -995h-326z" />
<glyph unicode="X" horiz-adv-x="1366" d="M-12 0l512 766l-471 696h372l287 -467l297 467h352l-469 -698l510 -764h-383l-319 506l-326 -506h-362z" />
<glyph unicode="Y" horiz-adv-x="1366" d="M-18 1462h362l342 -577l340 577h358l-542 -901v-561h-322v569z" />
<glyph unicode="Z" horiz-adv-x="1327" d="M47 0v254l784 938h-722v270h1151v-254l-785 -938h805v-270h-1233z" />
<glyph unicode="[" horiz-adv-x="681" d="M139 -373v1870h541v-229h-250v-1411h250v-230h-541z" />
<glyph unicode="\" horiz-adv-x="759" d="M-23 1497h234l571 -1532h-233z" />
<glyph unicode="]" horiz-adv-x="681" d="M2 -143h250v1411h-250v229h541v-1870h-541v230z" />
<glyph unicode="^" horiz-adv-x="1228" d="M125 645l352 789h275l352 -789h-240l-250 563l-249 -563h-240z" />
<glyph unicode="_" horiz-adv-x="1024" d="M0 -154h1024v-102h-1024v102z" />
<glyph unicode="`" horiz-adv-x="530" d="M-98 1481h321l197 -291h-203z" />
<glyph unicode="a" horiz-adv-x="1175" d="M66 289q0 162 112 241q82 55 248 80q236 33 240 35q104 27 104 105q0 86 -57 118q-41 25 -131 25q-178 0 -193 -160h-291q12 188 166 279q127 76 332 75q465 0 465 -301v-550q0 -176 37 -236h-295q-18 57 -21 102q-125 -131 -356 -131q-160 0 -256 78q-104 84 -104 240z M356 301q0 -135 179 -135q236 0 235 244v108q-35 -31 -152 -47q-133 -20 -176 -39q-86 -39 -86 -131z" />
<glyph unicode="b" horiz-adv-x="1251" d="M111 0v1462h290v-532h5q104 158 333 157q176 0 299 -133q139 -154 140 -424q0 -272 -140 -426q-123 -133 -299 -133q-258 0 -348 164h-4v-135h-276zM391 528q0 -143 60 -235q68 -102 188 -103q121 0 188 103q59 92 60 235q0 145 -60 238q-66 102 -188 102 q-123 0 -188 -102q-60 -93 -60 -238z" />
<glyph unicode="c" horiz-adv-x="1175" d="M78 514q0 254 141 410q147 164 399 163q201 0 336 -98q150 -111 162 -303h-285q-29 182 -215 182q-127 0 -194 -112q-53 -94 -53 -232q0 -133 53 -223q63 -111 188 -111q201 0 232 216h280q-27 -209 -163 -322t-347 -113q-238 0 -386 151.5t-148 391.5z" />
<glyph unicode="d" horiz-adv-x="1251" d="M66 539q0 229 118 381q129 168 351 167q213 0 315 -157h2v532h291v-1462h-277v135h-4q-96 -164 -321 -164q-227 0 -357 174q-118 158 -118 394zM356 530q0 -139 62 -231q68 -109 194 -109q250 0 250 342q0 145 -53 234q-66 102 -197 102q-133 0 -198 -104 q-58 -89 -58 -234z" />
<glyph unicode="e" horiz-adv-x="1175" d="M59 528q0 242 150.5 400.5t390.5 158.5q258 0 399 -192q117 -157 117 -379q0 -28 -2 -57h-764q12 -268 260 -269q84 0 152 46q63 39 78 92h256q-117 -356 -496 -357q-248 0 -394.5 154.5t-146.5 402.5zM350 643h473q-41 225 -231 225q-123 0 -189 -82q-49 -61 -53 -143z " />
<glyph unicode="f" horiz-adv-x="681" d="M0 864v195h174v82q0 145 91 233t263 88q29 0 78 -4q61 -4 76 -4v-217q-51 6 -107 6q-111 0 -110 -121v-63h201v-195h-201v-864h-291v864h-174z" />
<glyph unicode="g" horiz-adv-x="1251" d="M78 563q0 219 117 365q125 160 337 159q219 0 316 -169h4v141h276v-991q0 -469 -548 -469q-178 0 -308 79q-150 92 -159 261h288q35 -145 217 -146q233 0 234 262v140h-4q-94 -164 -318 -164q-225 0 -346 157q-106 142 -106 375zM369 567q0 -131 51 -215 q61 -102 184 -102q119 0 187 90q61 80 61 203q0 326 -248 325q-117 0 -178 -92q-57 -80 -57 -209z" />
<glyph unicode="h" horiz-adv-x="1214" d="M111 0v1462h290v-551h7q53 86 141 133q82 43 168 43q219 0 309 -118q78 -102 78 -318v-651h-291v598q0 260 -186 260q-119 0 -172.5 -71.5t-53.5 -231.5v-555h-290z" />
<glyph unicode="i" horiz-adv-x="528" d="M119 0v1059h291v-1059h-291zM119 1223v239h291v-239h-291z" />
<glyph unicode="j" horiz-adv-x="569" d="M-39 -125q25 -8 64 -8q113 0 112 94v1098h291v-1112q0 -170 -76 -242q-84 -78 -297 -78q-33 0 -94 8v240zM137 1223v239h291v-239h-291z" />
<glyph unicode="k" horiz-adv-x="1175" d="M137 0v1462h291v-784l367 381h344l-400 -389l445 -670h-353l-290 473l-113 -108v-365h-291z" />
<glyph unicode="l" horiz-adv-x="528" d="M119 0v1462h291v-1462h-291z" />
<glyph unicode="m" horiz-adv-x="1855" d="M119 0v1059h274v-144h4q121 172 324 172q229 0 309 -176q117 176 320 176q387 0 387 -378v-709h-291v600q0 129 -27 182q-39 76 -151 76q-195 0 -195 -268v-590h-291v594q0 133 -18 178q-37 86 -158 86q-68 0 -119 -45q-78 -63 -77 -199v-614h-291z" />
<glyph unicode="n" horiz-adv-x="1214" d="M111 0v1059h276v-148h6q109 176 324 176q219 0 309 -118q78 -102 78 -318v-651h-291v598q0 260 -186 260q-119 0 -172.5 -71.5t-53.5 -231.5v-555h-290z" />
<glyph unicode="o" horiz-adv-x="1251" d="M78 528q0 254 149.5 406.5t397.5 152.5q250 0 399.5 -152.5t149.5 -406.5q0 -252 -150 -404.5t-399 -152.5q-248 0 -397.5 152.5t-149.5 404.5zM369 528q0 -145 55 -231q66 -106 201 -107q258 0 258 338q0 340 -258 340q-256 0 -256 -340z" />
<glyph unicode="p" horiz-adv-x="1251" d="M111 -373v1432h276v-135h4q100 164 316 163q236 0 364 -172q117 -154 117 -397q0 -227 -117 -379q-127 -168 -348 -168q-211 0 -317 160h-5v-504h-290zM391 526q0 -143 58 -231q66 -104 196 -105q252 0 252 336q0 143 -57 234q-68 109 -197 108q-133 0 -197 -106 q-55 -91 -55 -236z" />
<glyph unicode="q" horiz-adv-x="1251" d="M66 522q0 236 116 391q131 174 359 174q229 0 321 -163h4v135h277v-1432h-291v506h-4q-96 -162 -334 -162q-174 0 -297 123q-151 147 -151 428zM356 528q0 -145 56 -233q63 -104 196 -105q131 0 199 103q55 86 55 231q0 141 -55 234q-66 111 -193 110q-131 0 -198 -104 q-60 -93 -60 -236z" />
<glyph unicode="r" horiz-adv-x="796" d="M111 0v1059h276v-197h4q39 98 135.5 161.5t202.5 63.5q33 0 64 -10v-270q-45 10 -105 10q-287 0 -287 -340v-477h-290z" />
<glyph unicode="s" horiz-adv-x="1099" d="M59 344h277q2 -90 70 -137q59 -41 153 -41q76 0 127 29q63 37 64 106q0 61 -86 98q-61 27 -244 66q-156 33 -232 86q-104 70 -104 197q0 340 461 339q438 0 467 -337h-277q-10 143 -198 143q-162 0 -162 -98q0 -68 102 -105q12 -4 228 -53q158 -37 231 -90 q104 -74 104 -207q0 -193 -151 -289q-125 -80 -332 -80t-336 82q-154 96 -162 291z" />
<glyph unicode="t" horiz-adv-x="720" d="M12 864v195h176v317h291v-317h213v-195h-213v-524q0 -74 24.5 -98.5t98.5 -24.5q49 0 90 8v-227q-61 -10 -170 -10q-334 0 -334 252v624h-176z" />
<glyph unicode="u" horiz-adv-x="1214" d="M111 408v651h290v-598q0 -260 187 -260q119 0 172 71.5t53 231.5v555h291v-1059h-277v147h-6q-109 -176 -323 -176q-219 0 -310 121q-77 101 -77 316z" />
<glyph unicode="v" horiz-adv-x="1064" d="M10 1059h305l224 -723h4l223 723h289l-359 -1059h-323z" />
<glyph unicode="w" horiz-adv-x="1667" d="M12 1059h307l195 -719h4l176 719h283l180 -717h4l195 717h299l-334 -1059h-299l-188 711h-5l-180 -711h-301z" />
<glyph unicode="x" horiz-adv-x="1099" d="M0 0l381 557l-348 502h332l186 -277l184 277h322l-348 -496l391 -563h-332l-221 334l-221 -334h-326z" />
<glyph unicode="y" horiz-adv-x="1062" d="M-12 1059h311l240 -725h4l231 725h301l-442 -1192q-47 -129 -131 -184.5t-234 -55.5q-80 0 -178 11v239q132 -11 163 -10h7q113 8 113 133q0 35 -13 66z" />
<glyph unicode="z" horiz-adv-x="1062" d="M45 0v219l551 621h-510v219h893v-219l-551 -621h590v-219h-973z" />
<glyph unicode="{" horiz-adv-x="681" d="M-18 473v178q63 0 118 41q70 51 70 144v385q0 127 92 209q76 68 160 67h260v-229h-111q-111 0 -110 -150v-311q0 -215 -203 -242v-6q70 -6 125 -51q78 -61 78 -174v-328q0 -150 110 -149h111v-230h-260q-84 0 -160 68q-92 82 -92 209v399q0 84 -70 131q-55 39 -118 39z " />
<glyph unicode="|" horiz-adv-x="456" d="M119 -35v1532h219v-1532h-219z" />
<glyph unicode="}" horiz-adv-x="681" d="M0 -143h111q111 0 110 149v328q0 113 78 174q55 45 125 51v6q-203 27 -203 242v311q0 150 -110 150h-111v229h260q84 0 160 -67q92 -82 92 -209v-385q0 -92 70 -144q55 -41 118 -41v-178q-63 0 -118 -39q-70 -47 -70 -131v-399q0 -127 -92 -209q-76 -68 -160 -68h-260 v230z" />
<glyph unicode="~" horiz-adv-x="1228" d="M137 520q92 176 256 176q78 0 228 -65q168 -74 208 -74q84 0 181 148l82 -191q-61 -86 -103 -121q-70 -55 -153 -55q-86 0 -209 68q-129 72 -236 71q-104 0 -172 -147z" />
<glyph unicode="&#xa1;" horiz-adv-x="569" d="M125 772v315h321v-315h-321zM133 18l80 631h145l78 -631v-393h-303v393z" />
<glyph unicode="&#xa2;" d="M43 512q0 240 125 395q133 160 364 180v175h121v-175q178 -2 312 -110q141 -117 147 -293h-285q-6 74 -55 126t-119 58v-678q74 14 125 80t53 146h285q-16 -190 -144 -309t-319 -136v-207h-121v207q-217 14 -353 167t-136 374zM334 541q0 -289 198 -351v676 q-198 -53 -198 -325z" />
<glyph unicode="&#xa3;" d="M43 633v174h131q-92 115 -92 283q0 172 133 284q143 123 391 123q236 0 368 -133t130 -379h-277q-8 113 -34 166q-53 106 -189 106q-90 0 -145.5 -51t-55.5 -137q0 -111 84 -262h273v-174h-215q16 -55 16 -127q0 -154 -168 -287l4 -4q76 47 140 47q55 0 161.5 -23.5 t159.5 -23.5q96 0 180 88l123 -207q-137 -131 -319 -131q-94 0 -222 39t-204 39q-135 0 -236 -78l-127 191q231 150 232 340q0 59 -39 137h-203z" />
<glyph unicode="&#xa4;" d="M41 305l117 119q-98 115 -99 291q0 197 99 295l-117 118l117 117l116 -115q111 94 299 95q178 0 281 -92l119 116l125 -125l-115 -112q92 -102 92 -293q0 -182 -94 -299l113 -115l-113 -112l-117 118q-106 -102 -293 -102q-190 0 -301 100l-114 -119zM313 715 q0 -119 66 -199q72 -88 192 -88q119 0 189 90q61 82 61 201q0 117 -61 196q-70 90 -187 91q-123 0 -191.5 -85t-68.5 -206z" />
<glyph unicode="&#xa5;" d="M-18 1462h333l271 -637l264 637h332l-318 -637h195v-194h-293l-31 -60v-94h324v-194h-324v-283h-311v283h-322v194h322v94l-29 60h-293v194h195z" />
<glyph unicode="&#xa6;" horiz-adv-x="456" d="M119 -35v563h219v-563h-219zM119 934v563h219v-563h-219z" />
<glyph unicode="&#xa7;" d="M20 637q0 221 220 299q-88 94 -88 207q0 164 135 264q123 90 293 90q188 0 307 -102q125 -109 125 -293h-254q0 78 -47 127t-127 49q-59 0 -105 -35q-51 -39 -51 -96q0 -74 111 -141q20 -12 237 -117q162 -78 236 -146q106 -100 106 -231q0 -100 -58.5 -182t-154.5 -117 q113 -86 113 -242q0 -162 -141 -258q-123 -86 -295 -86q-207 0 -328 94q-135 104 -133 304h254q10 -178 200 -179q66 0 109 35t43 101q0 80 -106 147q-37 23 -242 119q-168 78 -246 151q-113 103 -113 238zM274 662q0 -66 66 -101l369 -201q33 -14 61 -14q37 0 65.5 38 t28.5 75q0 78 -92 129l-338 190q-39 23 -55 21q-43 -4 -74 -47t-31 -90z" />
<glyph unicode="&#xa8;" horiz-adv-x="530" d="M-84 1223v239h277v-239h-277zM338 1223v239h276v-239h-276z" />
<glyph unicode="&#xa9;" horiz-adv-x="1638" d="M33 731q0 340 237 559q225 207 549 207t549 -207q238 -219 238 -559q0 -338 -238 -557q-225 -209 -549 -209t-549 209q-237 219 -237 557zM242 731q0 -258 166.5 -430t410.5 -172q242 0 410 172t168 430q0 260 -168 431t-410 171q-244 0 -410.5 -171t-166.5 -431z M408 735q0 203 117.5 331t318.5 128q145 0 247.5 -83t122.5 -234h-159q-14 72 -72.5 112.5t-138.5 40.5q-115 0 -177.5 -81t-62.5 -210q0 -123 67.5 -209t176.5 -86q84 0 141.5 43t65.5 117h166q-25 -150 -128.5 -236.5t-244.5 -86.5q-197 0 -318.5 129.5t-121.5 324.5z" />
<glyph unicode="&#xaa;" horiz-adv-x="704" d="M20 973q0 170 234 198q145 16 156 21q63 14 63 57q0 80 -123 80q-92 0 -100 -90h-209q31 223 319 223q307 0 308 -182v-340q0 -111 24 -154h-207q-10 31 -14 64q-80 -82 -221 -82q-230 0 -230 205zM229 977q0 -76 93 -76q150 0 149 154v41q-18 -16 -63 -25l-74 -12 q-105 -23 -105 -82z" />
<glyph unicode="&#xab;" horiz-adv-x="909" d="M86 420v276l322 252v-246l-185 -145l185 -147v-246zM502 420v276l321 252v-246l-184 -145l184 -147v-246z" />
<glyph unicode="&#xac;" horiz-adv-x="1228" d="M98 612v219h1032v-628h-219v409h-813z" />
<glyph unicode="&#xad;" horiz-adv-x="1228" d="M98 408v219h1035v-219h-1035z" />
<glyph unicode="&#x2212;" horiz-adv-x="1228" d="M98 408v219h1035v-219h-1035z" />
<glyph unicode="&#xae;" horiz-adv-x="1638" d="M33 733q0 338 237 557q225 207 549 207t549 -207q238 -219 238 -557q0 -340 -238 -559q-225 -209 -549 -209t-549 209q-237 219 -237 559zM242 733q0 -260 166.5 -432t410.5 -172q242 0 410 172t168 432q0 258 -168 429t-410 171q-244 0 -410.5 -171t-166.5 -429z M514 305v858h324q336 0 336 -254q0 -211 -226 -229l230 -375h-179l-208 367h-107v-367h-170zM684 805h152q80 0 116 18q51 27 52 101q0 106 -177 106h-143v-225z" />
<glyph unicode="&#xaf;" horiz-adv-x="530" d="M-117 1262v153h764v-153h-764z" />
<glyph unicode="&#x2c9;" horiz-adv-x="530" d="M-117 1262v153h764v-153h-764z" />
<glyph unicode="&#xb0;" horiz-adv-x="819" d="M106 1159q0 127 89.5 215t214.5 88q127 0 215 -88t88 -215q0 -125 -88 -214t-215 -89q-125 0 -214.5 89t-89.5 214zM240 1159q0 -74 51 -127t119 -53t119 53t51 127t-51.5 127t-118.5 53q-68 0 -119 -53t-51 -127z" />
<glyph unicode="&#xb1;" horiz-adv-x="1228" d="M98 0v219h1035v-219h-1035zM98 549v219h408v268h219v-268h408v-219h-408v-268h-219v268h-408z" />
<glyph unicode="&#xb2;" horiz-adv-x="802" d="M55 559q2 147 84 244q53 63 203 158q113 72 129 86q68 55 68 124q0 55 -35 91t-90 36q-78 0 -119 -65q-33 -53 -29 -127h-209q-2 164 92.5 260t278.5 96q135 0 223 -69q96 -76 97 -207q0 -154 -166 -262q-72 -43 -144 -88q-84 -53 -127 -113h428v-164h-684z" />
<glyph unicode="&#xb3;" horiz-adv-x="802" d="M45 868h197q4 -70 44 -116.5t113 -46.5q63 0 106.5 36.5t43.5 92.5q0 76 -74 102q-41 14 -139 14v144q195 0 194 96q0 49 -37.5 78.5t-89.5 29.5q-63 0 -101 -42t-36 -105h-196q4 143 92 227t239 84q131 0 224 -63q102 -70 102 -189q0 -141 -135 -176v-4 q76 -14 121 -67.5t45 -124.5q0 -141 -107 -222q-96 -76 -248 -75q-168 0 -264 84.5t-94 242.5z" />
<glyph unicode="&#xb4;" horiz-adv-x="530" d="M111 1190l196 291h322l-316 -291h-202z" />
<glyph unicode="&#xb5;" horiz-adv-x="1214" d="M111 -373v1432h290v-598q0 -260 187 -260q119 0 172 71.5t53 231.5v555h291v-1059h-277v147h-6q-51 -82 -135 -133q-74 -43 -131 -43q-109 0 -154 49v-393h-290z" />
<glyph unicode="&#x3bc;" horiz-adv-x="1214" d="M111 -373v1432h290v-598q0 -260 187 -260q119 0 172 71.5t53 231.5v555h291v-1059h-277v147h-6q-51 -82 -135 -133q-74 -43 -131 -43q-109 0 -154 49v-393h-290z" />
<glyph unicode="&#xb6;" horiz-adv-x="1269" d="M4 1090q0 373 492 372h600v-1802h-209v1638h-225v-1638h-209v1071q-211 0 -330 97.5t-119 261.5z" />
<glyph unicode="&#xb7;" horiz-adv-x="569" d="M113 588q0 72 51 123t123 51q70 0 121 -52.5t51 -121.5q0 -66 -51.5 -119t-118.5 -53q-72 0 -124 51t-52 121z" />
<glyph unicode="&#x2219;" horiz-adv-x="569" d="M113 588q0 72 51 123t123 51q70 0 121 -52.5t51 -121.5q0 -66 -51.5 -119t-118.5 -53q-72 0 -124 51t-52 121z" />
<glyph unicode="&#xb8;" horiz-adv-x="530" d="M25 -401l43 98q86 -37 172 -37q82 0 82 70q0 66 -82 65q-43 0 -82 -14l-43 49l121 174h100l-80 -113h4q20 10 70 11q76 0 132 -37t56 -107q0 -205 -239 -204q-123 0 -254 45z" />
<glyph unicode="&#xb9;" horiz-adv-x="802" d="M158 1120v154q238 -8 262 170h172v-885h-209v561h-225z" />
<glyph unicode="&#xba;" horiz-adv-x="751" d="M25 1114q0 160 95 254t255 94t256 -94t96 -254t-95 -253t-257 -93q-160 0 -255 93t-95 253zM244 1114q0 -76 30 -129q37 -63 101 -63q66 0 102 63q31 53 31 129q0 80 -31 133q-37 61 -102 62q-63 0 -101 -62q-30 -53 -30 -133z" />
<glyph unicode="&#xbb;" horiz-adv-x="909" d="M86 164v246l184 147l-184 145v246l322 -252v-276zM502 164v246l184 147l-184 145v246l321 -252v-276z" />
<glyph unicode="&#xbc;" horiz-adv-x="1826" d="M49 1120v154q238 -8 262 170h172v-885h-209v561h-225zM311 -45l848 1524h174l-844 -1524h-178zM1018 182v191l385 487h205v-514h116v-164h-116v-182h-197v182h-393zM1174 346h237v295h-4z" />
<glyph unicode="&#xbd;" horiz-adv-x="1820" d="M49 1120v154q238 -8 262 170h172v-885h-209v561h-225zM311 -45l848 1524h174l-844 -1524h-178zM1040 0q2 147 84 244q53 63 203 157q113 72 129 86q68 55 68 125q0 55 -35 91t-90 36q-78 0 -119 -65q-33 -53 -29 -127h-209q-2 164 92.5 260t278.5 96q135 0 223 -69 q96 -76 97 -207q0 -154 -166 -262q-72 -43 -144 -89q-84 -53 -127 -112h428v-164h-684z" />
<glyph unicode="&#xbe;" horiz-adv-x="1820" d="M80 868h196q4 -70 44 -116.5t114 -46.5q63 0 106.5 36.5t43.5 92.5q0 76 -74 102q-41 14 -139 14v144q195 0 194 96q0 49 -38 78.5t-89 29.5q-63 0 -101 -42t-36 -105h-197q4 143 92.5 227t239.5 84q131 0 223 -63q102 -70 103 -189q0 -141 -135 -176v-4 q76 -14 121 -67.5t45 -124.5q0 -141 -107 -222q-96 -76 -248 -75q-168 0 -264 84.5t-94 242.5zM489 -45l848 1524h174l-843 -1524h-179zM1059 182v191l385 487h205v-514h116v-164h-116v-182h-197v182h-393zM1214 346h238v295h-4z" />
<glyph unicode="&#xbf;" d="M66 -6q0 135 53 223q37 61 119 123q111 82 127 98q61 63 73 142v77h277v-92q0 -119 -60 -203q-35 -53 -117.5 -117.5t-105.5 -92.5q-45 -55 -45 -129q0 -184 174 -185q102 0 156 78q49 72 51 188h301q-4 -223 -139 -364t-355 -141q-262 0 -399 139q-110 109 -110 256z M422 772v315h321v-315h-321z" />
<glyph unicode="&#xc0;" horiz-adv-x="1402" d="M-14 0l555 1462h329l547 -1462h-334l-110 326h-547l-115 -326h-325zM510 565h379l-184 537h-5zM338 1884h321l197 -291h-203z" />
<glyph unicode="&#xc1;" horiz-adv-x="1402" d="M-14 0l555 1462h329l547 -1462h-334l-110 326h-547l-115 -326h-325zM510 565h379l-184 537h-5zM547 1593l196 291h322l-316 -291h-202z" />
<glyph unicode="&#xc2;" horiz-adv-x="1402" d="M-14 0l555 1462h329l547 -1462h-334l-110 326h-547l-115 -326h-325zM510 565h379l-184 537h-5zM342 1593l227 291h266l226 -291h-240l-127 166l-131 -166h-221z" />
<glyph unicode="&#xc3;" horiz-adv-x="1402" d="M-14 0l555 1462h329l547 -1462h-334l-110 326h-547l-115 -326h-325zM510 565h379l-184 537h-5zM325 1615q55 250 258 250q47 0 133.5 -35.5t133.5 -35.5q90 0 86 71h141q-35 -117 -72 -162q-55 -72 -157 -71q-59 0 -160.5 34.5t-151.5 34.5q-66 0 -86 -86h-125z" />
<glyph unicode="&#xc4;" horiz-adv-x="1402" d="M-14 0l555 1462h329l547 -1462h-334l-110 326h-547l-115 -326h-325zM510 565h379l-184 537h-5zM352 1626v239h277v-239h-277zM774 1626v239h276v-239h-276z" />
<glyph unicode="&#xc5;" horiz-adv-x="1402" d="M-14 0l555 1462h329l547 -1462h-334l-110 326h-547l-115 -326h-325zM510 565h379l-184 537h-5zM450 1746q0 102 74 176t176 74q104 0 178 -73.5t74 -176.5q0 -102 -73.5 -175.5t-178.5 -73.5q-102 0 -176 73.5t-74 175.5zM571 1746q0 -61 36 -102t93 -41t94 41t37 102 t-36.5 102.5t-94.5 41.5q-57 0 -93 -41.5t-36 -102.5z" />
<glyph unicode="&#xc6;" horiz-adv-x="2009" d="M-23 0l699 1462h1241v-270h-680v-313h639v-250h-639v-359h696v-270h-1007v326h-459l-148 -326h-342zM573 565h353v627h-70z" />
<glyph unicode="&#xc7;" horiz-adv-x="1517" d="M78 725q0 336 190 549q197 223 529 223q250 0 422 -137q180 -143 208 -389h-311q-14 109 -106 182.5t-213 73.5q-203 0 -308 -156q-90 -133 -90 -346q0 -205 90 -336q106 -154 308 -153q143 0 231 92q82 86 100 235h312q-25 -272 -197 -433t-440 -165l-53 -74h4 q20 10 69 11q76 0 132.5 -37t56.5 -107q0 -205 -240 -204q-123 0 -254 45l43 98q86 -37 172 -37q82 0 82 70q0 66 -82 65q-43 0 -82 -14l-43 49l99 141q-291 31 -463 246q-166 205 -166 508z" />
<glyph unicode="&#xc8;" horiz-adv-x="1327" d="M141 0v1462h1094v-270h-772v-313h708v-250h-708v-359h788v-270h-1110zM301 1884h321l197 -291h-203z" />
<glyph unicode="&#xc9;" horiz-adv-x="1327" d="M141 0v1462h1094v-270h-772v-313h708v-250h-708v-359h788v-270h-1110zM510 1593l196 291h322l-316 -291h-202z" />
<glyph unicode="&#xca;" horiz-adv-x="1327" d="M141 0v1462h1094v-270h-772v-313h708v-250h-708v-359h788v-270h-1110zM305 1593l227 291h266l226 -291h-240l-127 166l-131 -166h-221z" />
<glyph unicode="&#xcb;" horiz-adv-x="1327" d="M141 0v1462h1094v-270h-772v-313h708v-250h-708v-359h788v-270h-1110zM315 1626v239h277v-239h-277zM737 1626v239h276v-239h-276z" />
<glyph unicode="&#xcc;" horiz-adv-x="604" d="M141 0v1462h322v-1462h-322zM-61 1884h321l197 -291h-203z" />
<glyph unicode="&#xcd;" horiz-adv-x="604" d="M141 0v1462h322v-1462h-322zM148 1593l196 291h322l-316 -291h-202z" />
<glyph unicode="&#xce;" horiz-adv-x="604" d="M141 0v1462h322v-1462h-322zM-57 1593l227 291h266l226 -291h-240l-127 166l-131 -166h-221z" />
<glyph unicode="&#xcf;" horiz-adv-x="604" d="M141 0v1462h322v-1462h-322zM-47 1626v239h277v-239h-277zM375 1626v239h276v-239h-276z" />
<glyph unicode="&#xd0;" horiz-adv-x="1517" d="M6 637v237h135v588h631q297 0 473 -180q190 -190 191 -543q0 -332 -164 -528q-176 -211 -500 -211h-631v637h-135zM463 270h287q156 0 251 99q113 115 113 340q0 236 -90 352q-102 131 -332 131h-229v-318h328v-239h-328v-365z" />
<glyph unicode="&#xd1;" horiz-adv-x="1517" d="M141 0v1462h320l610 -981h4v981h301v-1462h-321l-609 979h-4v-979h-301zM383 1615q55 250 258 250q47 0 133.5 -35.5t133.5 -35.5q90 0 86 71h141q-35 -117 -72 -162q-55 -72 -157 -71q-59 0 -160.5 34.5t-151.5 34.5q-66 0 -86 -86h-125z" />
<glyph unicode="&#xd2;" horiz-adv-x="1593" d="M78 725q0 336 190 549q197 223 529 223t528 -223q190 -213 191 -549q0 -328 -191 -539q-199 -221 -528 -221q-330 0 -529 221q-190 211 -190 539zM399 725q0 -205 90 -336q106 -154 308 -153q201 0 307 153q90 131 90 336q0 213 -90 346q-104 156 -307 156t-308 -156 q-90 -133 -90 -346zM434 1884h321l197 -291h-203z" />
<glyph unicode="&#xd3;" horiz-adv-x="1593" d="M78 725q0 336 190 549q197 223 529 223t528 -223q190 -213 191 -549q0 -328 -191 -539q-199 -221 -528 -221q-330 0 -529 221q-190 211 -190 539zM399 725q0 -205 90 -336q106 -154 308 -153q201 0 307 153q90 131 90 336q0 213 -90 346q-104 156 -307 156t-308 -156 q-90 -133 -90 -346zM643 1593l196 291h322l-316 -291h-202z" />
<glyph unicode="&#xd4;" horiz-adv-x="1593" d="M78 725q0 336 190 549q197 223 529 223t528 -223q190 -213 191 -549q0 -328 -191 -539q-199 -221 -528 -221q-330 0 -529 221q-190 211 -190 539zM399 725q0 -205 90 -336q106 -154 308 -153q201 0 307 153q90 131 90 336q0 213 -90 346q-104 156 -307 156t-308 -156 q-90 -133 -90 -346zM438 1593l227 291h266l226 -291h-240l-127 166l-131 -166h-221z" />
<glyph unicode="&#xd5;" horiz-adv-x="1593" d="M78 725q0 336 190 549q197 223 529 223t528 -223q190 -213 191 -549q0 -328 -191 -539q-199 -221 -528 -221q-330 0 -529 221q-190 211 -190 539zM399 725q0 -205 90 -336q106 -154 308 -153q201 0 307 153q90 131 90 336q0 213 -90 346q-104 156 -307 156t-308 -156 q-90 -133 -90 -346zM421 1615q55 250 258 250q47 0 133.5 -35.5t133.5 -35.5q90 0 86 71h141q-35 -117 -72 -162q-55 -72 -157 -71q-59 0 -160.5 34.5t-151.5 34.5q-66 0 -86 -86h-125z" />
<glyph unicode="&#xd6;" horiz-adv-x="1593" d="M78 725q0 336 190 549q197 223 529 223t528 -223q190 -213 191 -549q0 -328 -191 -539q-199 -221 -528 -221q-330 0 -529 221q-190 211 -190 539zM399 725q0 -205 90 -336q106 -154 308 -153q201 0 307 153q90 131 90 336q0 213 -90 346q-104 156 -307 156t-308 -156 q-90 -133 -90 -346zM448 1626v239h277v-239h-277zM870 1626v239h276v-239h-276z" />
<glyph unicode="&#xd7;" horiz-adv-x="1228" d="M131 190l330 328l-326 328l156 155l325 -327l328 327l156 -155l-330 -328l330 -328l-156 -155l-328 330l-329 -330z" />
<glyph unicode="&#xd8;" horiz-adv-x="1593" d="M70 20l176 195q-168 205 -168 510q0 336 190 549q197 223 529 223q276 0 460 -158l164 183l103 -90l-172 -191q164 -209 164 -516q0 -328 -191 -539q-199 -221 -528 -221q-274 0 -457 156l-170 -189zM399 725q0 -160 58 -276l606 673q-100 104 -266 105q-203 0 -308 -156 q-90 -133 -90 -346zM535 336q100 -100 262 -100q201 0 307 153q90 131 90 336q0 160 -55 279z" />
<glyph unicode="&#xd9;" horiz-adv-x="1517" d="M135 553v909h322v-909q0 -145 53 -219q72 -98 248 -98q168 0 237 77q66 72 66 240v909h321v-909q0 -291 -162.5 -439.5t-461.5 -148.5q-623 0 -623 588zM396 1884h321l197 -291h-203z" />
<glyph unicode="&#xda;" horiz-adv-x="1517" d="M135 553v909h322v-909q0 -145 53 -219q72 -98 248 -98q168 0 237 77q66 72 66 240v909h321v-909q0 -291 -162.5 -439.5t-461.5 -148.5q-623 0 -623 588zM605 1593l196 291h322l-316 -291h-202z" />
<glyph unicode="&#xdb;" horiz-adv-x="1517" d="M135 553v909h322v-909q0 -145 53 -219q72 -98 248 -98q168 0 237 77q66 72 66 240v909h321v-909q0 -291 -162.5 -439.5t-461.5 -148.5q-623 0 -623 588zM400 1593l227 291h266l226 -291h-240l-127 166l-131 -166h-221z" />
<glyph unicode="&#xdc;" horiz-adv-x="1517" d="M135 553v909h322v-909q0 -145 53 -219q72 -98 248 -98q168 0 237 77q66 72 66 240v909h321v-909q0 -291 -162.5 -439.5t-461.5 -148.5q-623 0 -623 588zM410 1626v239h277v-239h-277zM832 1626v239h276v-239h-276z" />
<glyph unicode="&#xdd;" horiz-adv-x="1366" d="M-18 1462h362l342 -577l340 577h358l-542 -901v-561h-322v569zM529 1593l196 291h322l-316 -291h-202z" />
<glyph unicode="&#xde;" horiz-adv-x="1366" d="M141 0v1462h322v-198h338q256 0 389 -146q117 -125 117 -323q0 -199 -117 -324q-133 -145 -389 -145h-338v-326h-322zM463 575h250q131 0 196 39q86 53 86 181q0 127 -86 180q-66 39 -196 39h-250v-439z" />
<glyph unicode="&#xdf;" horiz-adv-x="1251" d="M115 0v1006q0 492 481 491q197 0 324 -94q141 -106 141 -299q0 -96 -53.5 -177t-137.5 -108v-4q129 -29 201 -131q66 -98 66 -235q0 -195 -127 -336.5t-318 -141.5q-84 0 -168 13v237q33 -10 84 -10q102 0 170 71.5t68 176.5q0 250 -250 250q-23 0 -72 -4v192 q33 -4 45 -4q90 0 152.5 46t62.5 136q0 182 -196 182q-86 0 -134 -54t-48 -146v-1057h-291z" />
<glyph unicode="&#xe0;" horiz-adv-x="1175" d="M66 289q0 162 112 241q82 55 248 80q236 33 240 35q104 27 104 105q0 86 -57 118q-41 25 -131 25q-178 0 -193 -160h-291q12 188 166 279q127 76 332 75q465 0 465 -301v-550q0 -176 37 -236h-295q-18 57 -21 102q-125 -131 -356 -131q-160 0 -256 78q-104 84 -104 240z M356 301q0 -135 179 -135q236 0 235 244v108q-35 -31 -152 -47q-133 -20 -176 -39q-86 -39 -86 -131zM226 1481h321l197 -291h-203z" />
<glyph unicode="&#xe1;" horiz-adv-x="1175" d="M66 289q0 162 112 241q82 55 248 80q236 33 240 35q104 27 104 105q0 86 -57 118q-41 25 -131 25q-178 0 -193 -160h-291q12 188 166 279q127 76 332 75q465 0 465 -301v-550q0 -176 37 -236h-295q-18 57 -21 102q-125 -131 -356 -131q-160 0 -256 78q-104 84 -104 240z M356 301q0 -135 179 -135q236 0 235 244v108q-35 -31 -152 -47q-133 -20 -176 -39q-86 -39 -86 -131zM435 1190l196 291h322l-316 -291h-202z" />
<glyph unicode="&#xe2;" horiz-adv-x="1175" d="M66 289q0 162 112 241q82 55 248 80q236 33 240 35q104 27 104 105q0 86 -57 118q-41 25 -131 25q-178 0 -193 -160h-291q12 188 166 279q127 76 332 75q465 0 465 -301v-550q0 -176 37 -236h-295q-18 57 -21 102q-125 -131 -356 -131q-160 0 -256 78q-104 84 -104 240z M356 301q0 -135 179 -135q236 0 235 244v108q-35 -31 -152 -47q-133 -20 -176 -39q-86 -39 -86 -131zM230 1190l227 291h266l226 -291h-240l-127 166l-131 -166h-221z" />
<glyph unicode="&#xe3;" horiz-adv-x="1175" d="M66 289q0 162 112 241q82 55 248 80q236 33 240 35q104 27 104 105q0 86 -57 118q-41 25 -131 25q-178 0 -193 -160h-291q12 188 166 279q127 76 332 75q465 0 465 -301v-550q0 -176 37 -236h-295q-18 57 -21 102q-125 -131 -356 -131q-160 0 -256 78q-104 84 -104 240z M356 301q0 -135 179 -135q236 0 235 244v108q-35 -31 -152 -47q-133 -20 -176 -39q-86 -39 -86 -131zM213 1212q55 250 258 250q47 0 133.5 -35.5t133.5 -35.5q90 0 86 71h141q-35 -117 -72 -162q-55 -72 -157 -71q-59 0 -160.5 34.5t-151.5 34.5q-66 0 -86 -86h-125z" />
<glyph unicode="&#xe4;" horiz-adv-x="1175" d="M66 289q0 162 112 241q82 55 248 80q236 33 240 35q104 27 104 105q0 86 -57 118q-41 25 -131 25q-178 0 -193 -160h-291q12 188 166 279q127 76 332 75q465 0 465 -301v-550q0 -176 37 -236h-295q-18 57 -21 102q-125 -131 -356 -131q-160 0 -256 78q-104 84 -104 240z M356 301q0 -135 179 -135q236 0 235 244v108q-35 -31 -152 -47q-133 -20 -176 -39q-86 -39 -86 -131zM240 1223v239h277v-239h-277zM662 1223v239h276v-239h-276z" />
<glyph unicode="&#xe5;" horiz-adv-x="1175" d="M66 289q0 162 112 241q82 55 248 80q236 33 240 35q104 27 104 105q0 86 -57 118q-41 25 -131 25q-178 0 -193 -160h-291q12 188 166 279q127 76 332 75q465 0 465 -301v-550q0 -176 37 -236h-295q-18 57 -21 102q-125 -131 -356 -131q-160 0 -256 78q-104 84 -104 240z M356 301q0 -135 179 -135q236 0 235 244v108q-35 -31 -152 -47q-133 -20 -176 -39q-86 -39 -86 -131zM338 1343q0 102 74 176t176 74q104 0 178 -73.5t74 -176.5q0 -102 -73.5 -175.5t-178.5 -73.5q-102 0 -176 73.5t-74 175.5zM459 1343q0 -61 36 -102t93 -41t94 41t37 102 t-36.5 102.5t-94.5 41.5q-57 0 -93 -41.5t-36 -102.5z" />
<glyph unicode="&#xe6;" horiz-adv-x="1857" d="M78 287q0 164 110 241q80 57 244 82q233 35 270 47q86 27 86 101q0 135 -188 135q-197 0 -203 -164h-291q6 186 162 279q129 80 338 79q254 0 350 -143q123 143 355 143q250 0 377 -190q111 -166 110 -438h-756q-4 -113 64 -199q74 -94 188 -94q182 0 211 166h283 q-43 -166 -177 -263.5t-311 -97.5q-270 0 -395 181q-137 -180 -432 -181q-168 0 -272 70q-123 82 -123 246zM369 303q0 -137 180 -137q92 0 160 51q80 61 79 168v131q-35 -29 -112 -43q-68 -12 -137 -22q-170 -31 -170 -148zM1042 643h465q2 102 -57 174q-66 76 -170 76 q-106 0 -171 -74t-67 -176z" />
<glyph unicode="&#xe7;" horiz-adv-x="1175" d="M78 514q0 254 141 410q147 164 399 163q201 0 336 -98q150 -111 162 -303h-285q-29 182 -215 182q-127 0 -194 -112q-53 -94 -53 -232q0 -133 53 -223q63 -111 188 -111q201 0 232 216h280q-27 -203 -154.5 -314.5t-332.5 -118.5l-57 -82h4q20 10 69 11q76 0 132.5 -37 t56.5 -107q0 -205 -240 -204q-123 0 -254 45l43 98q86 -37 172 -37q82 0 82 70q0 66 -82 65q-43 0 -82 -14l-43 49l103 147q-209 23 -335 170.5t-126 366.5z" />
<glyph unicode="&#xe8;" horiz-adv-x="1175" d="M59 528q0 242 150.5 400.5t390.5 158.5q258 0 399 -192q117 -157 117 -379q0 -28 -2 -57h-764q12 -268 260 -269q84 0 152 46q63 39 78 92h256q-117 -356 -496 -357q-248 0 -394.5 154.5t-146.5 402.5zM350 643h473q-41 225 -231 225q-123 0 -189 -82q-49 -61 -53 -143z M226 1481h321l197 -291h-203z" />
<glyph unicode="&#xe9;" horiz-adv-x="1175" d="M59 528q0 242 150.5 400.5t390.5 158.5q258 0 399 -192q117 -157 117 -379q0 -28 -2 -57h-764q12 -268 260 -269q84 0 152 46q63 39 78 92h256q-117 -356 -496 -357q-248 0 -394.5 154.5t-146.5 402.5zM350 643h473q-41 225 -231 225q-123 0 -189 -82q-49 -61 -53 -143z M435 1190l196 291h322l-316 -291h-202z" />
<glyph unicode="&#xea;" horiz-adv-x="1175" d="M59 528q0 242 150.5 400.5t390.5 158.5q258 0 399 -192q117 -157 117 -379q0 -28 -2 -57h-764q12 -268 260 -269q84 0 152 46q63 39 78 92h256q-117 -356 -496 -357q-248 0 -394.5 154.5t-146.5 402.5zM350 643h473q-41 225 -231 225q-123 0 -189 -82q-49 -61 -53 -143z M230 1190l227 291h266l226 -291h-240l-127 166l-131 -166h-221z" />
<glyph unicode="&#xeb;" horiz-adv-x="1175" d="M59 528q0 242 150.5 400.5t390.5 158.5q258 0 399 -192q117 -157 117 -379q0 -28 -2 -57h-764q12 -268 260 -269q84 0 152 46q63 39 78 92h256q-117 -356 -496 -357q-248 0 -394.5 154.5t-146.5 402.5zM350 643h473q-41 225 -231 225q-123 0 -189 -82q-49 -61 -53 -143z M240 1223v239h277v-239h-277zM662 1223v239h276v-239h-276z" />
<glyph unicode="&#xec;" horiz-adv-x="528" d="M119 0v1059h291v-1059h-291zM-98 1481h321l197 -291h-203z" />
<glyph unicode="&#xed;" horiz-adv-x="528" d="M119 0v1059h291v-1059h-291zM111 1190l196 291h322l-316 -291h-202z" />
<glyph unicode="&#xee;" horiz-adv-x="528" d="M119 0v1059h291v-1059h-291zM-94 1190l227 291h266l226 -291h-240l-127 166l-131 -166h-221z" />
<glyph unicode="&#xef;" horiz-adv-x="528" d="M119 0v1059h291v-1059h-291zM-84 1223v239h277v-239h-277zM338 1223v239h276v-239h-276z" />
<glyph unicode="&#xf0;" horiz-adv-x="1251" d="M78 506q0 211 112 360q129 170 359 170q160 0 276 -82h4q-53 123 -208 260l-230 -114l-119 114l220 111q-90 63 -173 102l189 142q111 -61 203 -135l252 127l106 -121l-233 -117q342 -330 338 -764q-2 -256 -150 -420q-154 -168 -399 -168q-248 0 -397.5 148.5 t-149.5 386.5zM369 528q0 -145 55 -231q66 -106 201 -107q258 0 258 338q0 129 -60 213q-70 100 -200 101q-131 0 -199 -101q-55 -84 -55 -213z" />
<glyph unicode="&#xf1;" horiz-adv-x="1214" d="M111 0v1059h276v-148h6q109 176 324 176q219 0 309 -118q78 -102 78 -318v-651h-291v598q0 260 -186 260q-119 0 -172.5 -71.5t-53.5 -231.5v-555h-290zM231 1212q55 250 258 250q47 0 133.5 -35.5t133.5 -35.5q90 0 86 71h141q-35 -117 -72 -162q-55 -72 -157 -71 q-59 0 -160.5 34.5t-151.5 34.5q-66 0 -86 -86h-125z" />
<glyph unicode="&#xf2;" horiz-adv-x="1251" d="M78 528q0 254 149.5 406.5t397.5 152.5q250 0 399.5 -152.5t149.5 -406.5q0 -252 -150 -404.5t-399 -152.5q-248 0 -397.5 152.5t-149.5 404.5zM369 528q0 -145 55 -231q66 -106 201 -107q258 0 258 338q0 340 -258 340q-256 0 -256 -340zM262 1481h321l197 -291h-203z " />
<glyph unicode="&#xf3;" horiz-adv-x="1251" d="M78 528q0 254 149.5 406.5t397.5 152.5q250 0 399.5 -152.5t149.5 -406.5q0 -252 -150 -404.5t-399 -152.5q-248 0 -397.5 152.5t-149.5 404.5zM369 528q0 -145 55 -231q66 -106 201 -107q258 0 258 338q0 340 -258 340q-256 0 -256 -340zM471 1190l196 291h322 l-316 -291h-202z" />
<glyph unicode="&#xf4;" horiz-adv-x="1251" d="M78 528q0 254 149.5 406.5t397.5 152.5q250 0 399.5 -152.5t149.5 -406.5q0 -252 -150 -404.5t-399 -152.5q-248 0 -397.5 152.5t-149.5 404.5zM369 528q0 -145 55 -231q66 -106 201 -107q258 0 258 338q0 340 -258 340q-256 0 -256 -340zM266 1190l227 291h266l226 -291 h-240l-127 166l-131 -166h-221z" />
<glyph unicode="&#xf5;" horiz-adv-x="1251" d="M78 528q0 254 149.5 406.5t397.5 152.5q250 0 399.5 -152.5t149.5 -406.5q0 -252 -150 -404.5t-399 -152.5q-248 0 -397.5 152.5t-149.5 404.5zM369 528q0 -145 55 -231q66 -106 201 -107q258 0 258 338q0 340 -258 340q-256 0 -256 -340zM249 1212q55 250 258 250 q47 0 133.5 -35.5t133.5 -35.5q90 0 86 71h141q-35 -117 -72 -162q-55 -72 -157 -71q-59 0 -160.5 34.5t-151.5 34.5q-66 0 -86 -86h-125z" />
<glyph unicode="&#xf6;" horiz-adv-x="1251" d="M78 528q0 254 149.5 406.5t397.5 152.5q250 0 399.5 -152.5t149.5 -406.5q0 -252 -150 -404.5t-399 -152.5q-248 0 -397.5 152.5t-149.5 404.5zM369 528q0 -145 55 -231q66 -106 201 -107q258 0 258 338q0 340 -258 340q-256 0 -256 -340zM276 1223v239h277v-239h-277z M698 1223v239h276v-239h-276z" />
<glyph unicode="&#xf7;" horiz-adv-x="1228" d="M98 408v219h1035v-219h-1035zM442 92q0 72 51.5 122t122.5 50q70 0 121 -51t51 -121q0 -66 -51 -120t-119 -54q-72 0 -124 51t-52 123zM442 942q0 72 51.5 123t122.5 51q70 0 121 -52t51 -122q0 -66 -51 -119t-119 -53q-72 0 -124 51t-52 121z" />
<glyph unicode="&#xf8;" horiz-adv-x="1251" d="M78 528q0 254 149.5 406.5t397.5 152.5q195 0 333 -98l109 125l76 -65l-111 -125q141 -152 142 -396q0 -252 -150 -404.5t-399 -152.5q-199 0 -338 103l-121 -137l-76 65l123 139q-135 147 -135 387zM369 528q0 -106 30 -176l396 451q-61 66 -170 65q-256 0 -256 -340z M451 260q63 -70 174 -70q258 0 258 338q0 106 -33 187z" />
<glyph unicode="&#xf9;" horiz-adv-x="1214" d="M111 408v651h290v-598q0 -260 187 -260q119 0 172 71.5t53 231.5v555h291v-1059h-277v147h-6q-109 -176 -323 -176q-219 0 -310 121q-77 101 -77 316zM244 1481h321l197 -291h-203z" />
<glyph unicode="&#xfa;" horiz-adv-x="1214" d="M111 408v651h290v-598q0 -260 187 -260q119 0 172 71.5t53 231.5v555h291v-1059h-277v147h-6q-109 -176 -323 -176q-219 0 -310 121q-77 101 -77 316zM453 1190l196 291h322l-316 -291h-202z" />
<glyph unicode="&#xfb;" horiz-adv-x="1214" d="M111 408v651h290v-598q0 -260 187 -260q119 0 172 71.5t53 231.5v555h291v-1059h-277v147h-6q-109 -176 -323 -176q-219 0 -310 121q-77 101 -77 316zM248 1190l227 291h266l226 -291h-240l-127 166l-131 -166h-221z" />
<glyph unicode="&#xfc;" horiz-adv-x="1214" d="M111 408v651h290v-598q0 -260 187 -260q119 0 172 71.5t53 231.5v555h291v-1059h-277v147h-6q-109 -176 -323 -176q-219 0 -310 121q-77 101 -77 316zM258 1223v239h277v-239h-277zM680 1223v239h276v-239h-276z" />
<glyph unicode="&#xfd;" horiz-adv-x="1062" d="M-12 1059h311l240 -725h4l231 725h301l-442 -1192q-47 -129 -131 -184.5t-234 -55.5q-80 0 -178 11v239q132 -11 163 -10h7q113 8 113 133q0 35 -13 66zM377 1190l196 291h322l-316 -291h-202z" />
<glyph unicode="&#xfe;" horiz-adv-x="1251" d="M111 -373v1835h290v-538h5q100 164 301 163q236 0 364 -172q117 -154 117 -397q0 -227 -117 -379q-127 -168 -348 -168q-211 0 -317 160h-5v-504h-290zM391 526q0 -143 58 -231q66 -104 196 -105q252 0 252 336q0 143 -57 234q-68 109 -197 108q-133 0 -197 -106 q-55 -91 -55 -236z" />
<glyph unicode="&#xff;" horiz-adv-x="1062" d="M-12 1059h311l240 -725h4l231 725h301l-442 -1192q-47 -129 -131 -184.5t-234 -55.5q-80 0 -178 11v239q132 -11 163 -10h7q113 8 113 133q0 35 -13 66zM182 1223v239h277v-239h-277zM604 1223v239h276v-239h-276z" />
<glyph unicode="&#x131;" horiz-adv-x="528" d="M119 0v1059h291v-1059h-291z" />
<glyph unicode="&#x152;" horiz-adv-x="2238" d="M78 723q0 319 180 539q195 236 506 235q238 0 346 -139h4v104h1024v-270h-725v-313h664v-250h-664v-359h739v-270h-1038v111h-4q-133 -145 -352 -146q-313 0 -502 228q-178 213 -178 530zM399 727q0 -203 88 -336q102 -156 293 -155q147 0 234.5 92t87.5 241v349 q0 137 -89 223t-227 86q-199 0 -301 -158q-86 -135 -86 -342z" />
<glyph unicode="&#x153;" horiz-adv-x="1896" d="M78 535q0 238 143.5 395t376.5 157q260 0 365 -167q53 78 157 124q96 43 197 43q264 0 401 -188q119 -164 119 -440h-756q0 -119 62 -191q68 -78 190 -78q154 0 213 146h283q-51 -172 -183.5 -268.5t-312.5 -96.5q-270 0 -383 181q-102 -180 -375 -181q-236 0 -370 168 q-127 156 -127 396zM369 524q0 -131 47 -221q59 -113 178 -113q233 0 233 342q0 336 -227 336q-123 0 -182 -110q-49 -93 -49 -234zM1081 643h465q-10 225 -235 225q-104 0 -165 -63.5t-65 -161.5z" />
<glyph unicode="&#x178;" horiz-adv-x="1366" d="M-18 1462h362l342 -577l340 577h358l-542 -901v-561h-322v569zM334 1626v239h277v-239h-277zM756 1626v239h276v-239h-276z" />
<glyph unicode="&#x2c6;" horiz-adv-x="530" d="M-94 1190l227 291h266l226 -291h-240l-127 166l-131 -166h-221z" />
<glyph unicode="&#x2da;" horiz-adv-x="530" d="M14 1343q0 102 74 176t176 74q104 0 178 -73.5t74 -176.5q0 -102 -73.5 -175.5t-178.5 -73.5q-102 0 -176 73.5t-74 175.5zM135 1343q0 -61 36 -102t93 -41t94 41t37 102t-36.5 102.5t-94.5 41.5q-57 0 -93 -41.5t-36 -102.5z" />
<glyph unicode="&#x2dc;" horiz-adv-x="530" d="M-111 1212q55 250 258 250q47 0 133.5 -35.5t133.5 -35.5q90 0 86 71h141q-35 -117 -72 -162q-55 -72 -157 -71q-59 0 -160.5 34.5t-151.5 34.5q-66 0 -86 -86h-125z" />
<glyph unicode="&#x2000;" horiz-adv-x="997" />
<glyph unicode="&#x2001;" horiz-adv-x="1996" />
<glyph unicode="&#x2002;" horiz-adv-x="997" />
<glyph unicode="&#x2003;" horiz-adv-x="1996" />
<glyph unicode="&#x2004;" horiz-adv-x="665" />
<glyph unicode="&#x2005;" horiz-adv-x="497" />
<glyph unicode="&#x2006;" horiz-adv-x="331" />
<glyph unicode="&#x2007;" horiz-adv-x="331" />
<glyph unicode="&#x2008;" horiz-adv-x="247" />
<glyph unicode="&#x2009;" horiz-adv-x="399" />
<glyph unicode="&#x200a;" horiz-adv-x="110" />
<glyph unicode="&#x2010;" horiz-adv-x="833" d="M109 434v250h616v-250h-616z" />
<glyph unicode="&#x2011;" horiz-adv-x="833" d="M109 434v250h616v-250h-616z" />
<glyph unicode="&#x2012;" horiz-adv-x="833" d="M109 434v250h616v-250h-616z" />
<glyph unicode="&#x2013;" horiz-adv-x="1024" d="M0 434v250h1024v-250h-1024z" />
<glyph unicode="&#x2014;" horiz-adv-x="2048" d="M0 434v250h2048v-250h-2048z" />
<glyph unicode="&#x2018;" horiz-adv-x="569" d="M139 805v313q0 135 81 231.5t210 112.5v-135q-135 -45 -135 -207h135v-315h-291z" />
<glyph unicode="&#x2019;" horiz-adv-x="569" d="M139 805v135q135 45 135 207h-135v315h291v-313q0 -135 -81 -231.5t-210 -112.5z" />
<glyph unicode="&#x201a;" horiz-adv-x="569" d="M139 0v315h291v-313q0 -135 -81 -231.5t-210 -112.5v135q135 45 135 207h-135z" />
<glyph unicode="&#x201c;" horiz-adv-x="948" d="M111 805v313q0 135 80.5 231.5t209.5 112.5v-135q-135 -45 -135 -207h135v-315h-290zM547 805v313q0 135 81 231.5t210 112.5v-135q-135 -45 -136 -207h136v-315h-291z" />
<glyph unicode="&#x201d;" horiz-adv-x="948" d="M111 805v135q135 45 135 207h-135v315h290v-313q0 -135 -80.5 -231.5t-209.5 -112.5zM547 805v135q135 45 135 207h-135v315h291v-313q0 -135 -81 -231.5t-210 -112.5z" />
<glyph unicode="&#x201e;" horiz-adv-x="948" d="M111 0v315h290v-313q0 -135 -80.5 -231.5t-209.5 -112.5v135q135 45 135 207h-135zM547 0v315h291v-313q0 -135 -81 -231.5t-210 -112.5v135q135 45 135 207h-135z" />
<glyph unicode="&#x2022;" horiz-adv-x="1026" d="M147 731q0 152 106.5 258.5t258.5 106.5t259.5 -106.5t107.5 -258.5t-107.5 -259t-259.5 -107t-258.5 107t-106.5 259z" />
<glyph unicode="&#x2026;" horiz-adv-x="2048" d="M180 0v315h322v-315h-322zM862 0v315h322v-315h-322zM1544 0v315h322v-315h-322z" />
<glyph unicode="&#x202f;" horiz-adv-x="399" />
<glyph unicode="&#x2039;" horiz-adv-x="493" d="M86 420v276l322 252v-246l-185 -145l185 -147v-246z" />
<glyph unicode="&#x203a;" horiz-adv-x="493" d="M86 164v246l184 147l-184 145v246l322 -252v-276z" />
<glyph unicode="&#x205f;" horiz-adv-x="497" />
<glyph unicode="&#x2122;" horiz-adv-x="2048" d="M127 1298v164h688v-164h-240v-680h-208v680h-240zM924 618v844h278l211 -555l211 555h277v-844h-197v599h-4l-217 -599h-142l-217 599h-4v-599h-196z" />
<glyph unicode="&#xe000;" horiz-adv-x="1060" d="M0 1060h1060v-1060h-1060v1060z" />
<glyph unicode="&#xfb01;" horiz-adv-x="1210" d="M801 0v1059h291v-1059h-291zM801 1223v239h291v-239h-291zM0 864v195h174v82q0 145 91 233t263 88q29 0 78 -4q61 -4 76 -4v-217q-51 6 -107 6q-111 0 -110 -121v-63h201v-195h-201v-864h-291v864h-174z" />
<glyph unicode="&#xfb02;" horiz-adv-x="1210" d="M801 0v1462h291v-1462h-291zM0 864v195h174v82q0 145 91 233t263 88q29 0 78 -4q61 -4 76 -4v-217q-51 6 -107 6q-111 0 -110 -121v-63h201v-195h-201v-864h-291v864h-174z" />
<glyph unicode="&#xfb03;" horiz-adv-x="1892" d="M1483 0v1059h291v-1059h-291zM1483 1223v239h291v-239h-291zM682 864v195h174v82q0 145 91 233t263 88q29 0 78 -4q61 -4 76 -4v-217q-51 6 -107 6q-111 0 -110 -121v-63h201v-195h-201v-864h-291v864h-174zM0 864v195h174v82q0 145 91 233t263 88q29 0 78 -4 q61 -4 76 -4v-217q-51 6 -107 6q-111 0 -110 -121v-63h201v-195h-201v-864h-291v864h-174z" />
<glyph unicode="&#xfb04;" horiz-adv-x="1892" d="M1483 0v1462h291v-1462h-291zM682 864v195h174v82q0 145 91 233t263 88q29 0 78 -4q61 -4 76 -4v-217q-51 6 -107 6q-111 0 -110 -121v-63h201v-195h-201v-864h-291v864h-174zM0 864v195h174v82q0 145 91 233t263 88q29 0 78 -4q61 -4 76 -4v-217q-51 6 -107 6 q-111 0 -110 -121v-63h201v-195h-201v-864h-291v864h-174z" />
</font>
</defs>
</svg>
